Алые осколки (ТВ-1) / Hiiro no Kakera: Tamayori Hime Kitan (Сирахата Боб) [TV] [01-13 из 13] [без хардсаба] [RUS(int), JAP+SUB] [2012, романтика, мистика, сёдзё, HDTVRip] [HWP]

Статистика раздачи
Размер:  3.44 GB   |   Зарегистрирован:  6 лет   |   .torrent скачан:  1,654 раза
Сиды:  2
Автор
Сообщение

degekater

Стаж: 6 лет 3 месяца

Сообщений: 496

flag

degekater · 31-Янв-13 16:08 (6 лет назад, ред. 18-Мар-13 23:07)

 

Алые осколки [ТВ-1] / Hiiro no Kakera: Tamayori Hime Kitan
Страна: Япония
Год выпуска: 2012 г.
Жанр: романтика, мистика, сёдзё
Тип: TV
Продолжительность: 13 эп., 24 мин.
Режиссер: Сирахата Боб
Студия:
Описание: 17-летняя Тамаки Касуга из-за отъезда родителей за рубеж переезжает из Токио к бабушке в деревню Кифу, самую что ни на есть горную глушь. Обычная городская девчонка одинаково удивляется и отсутствию сотовой связи, и явлению лесных ками. Уволокли бы бедняжку злые аякаси, да вмешался крепкий парень Такума, отбил гостью и проводил до дома. Там бабушка Сидзуку, человек в округе известный и уважаемый, поведала внучке, что она – следующая Тамаёрихимэ, «драгоценная принцесса», хранительница меча Оникиримару, способного убивать демонов и богов. Меч навечно запечатан в деревне и укрыт магическим барьером. Самой бабушке осталось немного, но знания внучке она передать успеет.
Ничего себе поездочка! С каждым дней Тамаки убеждается, что она по праву крови имеет доступ к огромной силе. Ее согласием никто не интересуется, ибо кровь – это судьба. А сила – это власть, потому подходы к хранительнице ищут злодеи ближние и дальние. Только вряд ли у них что-то выйдет, ибо роду принцессы служат и верные духи, и младшие жрицы, а главное – пятеро Стражей! В этой эпохе они приняли облик писаных красавцев, которые и в школе присмотрят, и потом скучать не дадут. Среди Стражей, естественно, парни на любой вкус - от брутального Такумы и живчика Махиро до старшего бригады – неотразимого ученого Сугуру. В общем, огляделась Тамаки, подумала и решила – еще повоюем! Враг, как говорится, не пройдет, Будда не выдаст, Ямато-но-Ороти не съест!
© Hollow, World Art
Качество: HDTVRip
Тип релиза: Без хардсаба
Формат видео: AVI
Энкод: SakaE
Видео: XviD, 720x400, ~1205 kbpc, 23,976 fps
Аудио 1: MP3, ~160 kbps, 48000 Hz, 2 ch., язык русский (в составе контейнера); озвучка: трёхголосая Faraway, SakaE, Viki
Аудио 2: MP3, ~160 kbps, 48000 Hz, 2 ch., язык японский, оригинал
Субтитры: SRT, внешние; язык субтитров русский; перевод: Firegorn Team
Подробные тех. данные
MediaInfo
Общее
Полное имя : D:\[SHIZA Project] Hiiro no Kakera TV [MVO] [HWP]\[SHIZA Project] Hiiro no Kakera TV [01 of 13] [RUS JAP] [720x400 XviD] [MVO].avi
Формат : AVI
Формат/Информация : Audio Video Interleave
Размер файла : 242 Мбайт
Продолжительность : 22 м.
Общий поток : 1539 Кбит/сек
Программа кодирования : VirtualDubMod 1.5.10.2 (build 2540/release)
Библиотека кодирования : VirtualDubMod build 2540/release
Видео
Идентификатор : 0
Формат : MPEG-4 Visual
Профиль формата : Advanced Simple@L5
Параметр BVOP формата : Нет
Параметр QPel формата : Нет
Параметр GMC формата : Без точки перехода
Параметр матрицы формата : Default (H.263)
Идентификатор кодека : XVID
Идентификатор кодека/Подсказка : XviD
Продолжительность : 22 м.
Битрейт : 1205 Кбит/сек
Ширина : 720 пикселей
Высота : 400 пикселей
Соотношение сторон : 16:9
Частота кадров : 23,976 кадра/сек
Цветовое пространство : YUV
Субдискретизация насыщенности : 4:2:0
Битовая глубина : 8 бит
Тип развёртки : Прогрессивная
Метод сжатия : С потерями
Бит/(Пиксели*Кадры) : 0.174
Размер потока : 190 Мбайт (78%)
Библиотека кодирования : XviD 1.2.1 (UTC 2008-12-04)
Аудио #1
Идентификатор : 1
Формат : MPEG Audio
Версия формата : Version 1
Профиль формата : Layer 3
Режим : Joint stereo
Расширение режима : MS Stereo
Идентификатор кодека : 55
Идентификатор кодека/Подсказка : MP3
Продолжительность : 22 м.
Вид битрейта : Постоянный
Битрейт : 160 Кбит/сек
Каналы : 2 канала
Частота : 48,0 КГц
Метод сжатия : С потерями
Размер потока : 25,2 Мбайт (10%)
Выравнивание : Соединение по промежуткам
Продолжительность промежутка : 42 мс. (1,00 видеокадр)
Время предзагрузки промежутка : 504 мс.
Библиотека кодирования : LAME3.99r
Настройки программы : -m j -V 4 -q 2 -lowpass 17.5 -b 160
Аудио #2
Идентификатор : 2
Формат : MPEG Audio
Версия формата : Version 1
Профиль формата : Layer 3
Режим : Joint stereo
Расширение режима : MS Stereo
Идентификатор кодека : 55
Идентификатор кодека/Подсказка : MP3
Продолжительность : 22 м.
Вид битрейта : Постоянный
Битрейт : 160 Кбит/сек
Каналы : 2 канала
Частота : 48,0 КГц
Метод сжатия : С потерями
Размер потока : 25,2 Мбайт (10%)
Выравнивание : Соединение по промежуткам
Продолжительность промежутка : 42 мс. (1,00 видеокадр)
Время предзагрузки промежутка : 504 мс.
Библиотека кодирования : LAME3.99r
Настройки программы : -m j -V 4 -q 2 -lowpass 17.5 -b 160
BitrateViewer
Список эпизодов
01. Предпоказ
02. Непреклонный первый шаг
03. Пять защитников
04. Пришествие Святой
05. Две задачи
06. Курс на битву
07. Снятие запретов
08. Предсказание отдела Медицины
09. Грохот Земли
10. Чувства хранителей
11. Предание о демонах
12. Время битвы
13. Сила Оникиримару
Скриншоты
Зарегистрирован:
  • 31-Янв-13 16:51
  • Скачан: 1,654 раза

20 KB

Тип: обычная
Статус: проверено
Размер: 3.44 GB  ·  magnet941A838F255E8F8DBE4CD949316D3378DBEA1305
  • Свернуть поддиректории
  • Развернуть
  • Переключить
  • Увел./умен. окно
загружается...

TolstiyMob

VIP (Заслуженный)

Стаж: 10 лет 4 месяца

Сообщений: 2970

flag

TolstiyMob · 31-Янв-13 20:02 (спустя 3 часа, ред. 31-Янв-13 20:02)

Может, взять другую равку за исходник? Без гадостей на четверть экрана, вроде этой?

Daitana

Стаж: 10 лет 7 месяцев

Сообщений: 50

Daitana · 15-Фев-13 16:53 (спустя 14 дней)

Большое спасибо!А второй сезон будете в этом формате выкладывать?

degekater

Стаж: 6 лет 3 месяца

Сообщений: 496

flag

degekater · 15-Фев-13 17:39 (спустя 45 мин.)

Да, буду. И возможно очень скоро. Выкладывать скорее всего буду по несколько серий.

Melind@

Moderator

Стаж: 11 лет 3 месяца

Сообщений: 4553

flag

Melind@ · 07-Дек-13 21:39 (спустя 9 месяцев)

Killer Bee
Так 2 сезон не ожидается?
 
All rights reserved © 2017-2019
Loading...
Error