Пуни-Пуни Поэми / Puni Puni Poemi / Puni-Puni Poemy (Ватанабэ Синъити) [OVA] [2 из 2] [хардсаб] [RUS(int)] [2001, пародия, комедия, махо-сёдзё, этти, DVDRip] [HWP]

Статистика раздачи
Размер:  651.8 MB   |   Зарегистрирован:  12 лет 1 месяц   |   .torrent скачан:  838 раз
Сиды:  1
Автор
Сообщение

Alex Luden

Стаж: 12 лет 1 месяц

Сообщений: 18

flag

Alex Luden · 08-Янв-07 19:13 (12 лет 1 месяц назад, ред. 20-Апр-16 14:31)

 

Пуни-Пуни Поэми / Puni-Puni Poemi
Год выпуска: 2001
Страна: Япония
Жанр: пародия, комедия, махо-сёдзё, этти
Продолжительность: OVA (2 эпизода), х30 мин.
Перевод: озвучено в один голос, мужской. DF
Хардсаб: английский
Режиссер: Ватанабэ Синъити
Описание: Рецензия:
© Алексей Фадеев, 2003.09.05
Такое можно нарисовать только после трех дней беспробудного пьянства или если наглотаться чего-нибудь смертоносного. Наверное, Ватанабэ Синъити принимал и то, и другое, после чего сотворил-таки «Puni Puni Poemi». Хотя это уже второй казус режиссера. Первым была легендарная «Excel Saga», «Puni Puni Poemi» является ее логическим продолжением и завершением.
Все, что потребовалось автору, это нарезать из многих фильмов куски, соединить их и замечательно озвучить. Коллаж получился такой пестрый и яркий, что аж прошибает. На нелепость не обращаешь внимания. Такой фильм нельзя ругать или хвалить, это смесь, которую надо принимать сразу и залпом, не вдаваясь в рассуждения. Стоит задуматься над чем-то — и все, пиши пропало. А задуматься-то как раз и не дают. Все происходит так быстро, что не то что не успеваешь понимать, что говорят герои, но и не успеваешь следить за сменой картинок. Героиня Поэми так тараторит, выделывает такие движения, что пока их смысл доходит до мозга, действо на экране переносится в абсолютно иную область. Темы «Sailor Moon» сменяются сценами «Love Hina», потом идут упоминания о «Evangelion», а в это время на планету нападают пришельцы на роботе, точно &laquoMacron 1», но с ними вступает в бой папаша Поэми — вылитый Спайк Шпигель из «Cowboy Bebop». И вот такая каша не прекращается ни на секунду. Чтобы это выдержать, нужно быть крепким, но не все мы такие. Наверное, поэтому Ватанабэ сделал только два эпизода, зная, что зритель не потянет третий, да и идей на третий уже не оставалось. Тем не менее, он, как Карлсон, обещал вернуться...
Качество: DVDRip [Anime-Kissaten]
Формат: AVI
Видео кодек: DivX
Аудио кодек: MP3
Видео: 512Х384(4:3), 1 361 kb/s, 23.976 FPS
Аудио: 160 kb/s, 2 ch, 44.1 kHz
Подробные тех.данные
General
Complete name : ***\Puni Puni Poemi.avi
Format : AVI
Format/Info : Audio Video Interleave
File size : 652 MiB
Duration : 59 min 40 s
Overall bit rate : 1 527 kb/s
Video
ID : 0
Format : MPEG-4 Visual
Format settings, BVOP : 1
Format settings, QPel : No
Format settings, GMC : No warppoints
Format settings, Matrix : Default (H.263)
Muxing mode : Packed bitstream
Codec ID : DX50
Codec ID/Hint : DivX 5
Duration : 59 min 40 s
Bit rate : 1 361 kb/s
Nominal bit rate : 3 695 kb/s
Width : 512 pixels
Height : 384 pixels
Display aspect ratio : 4:3
Frame rate : 23.976 (24000/1001) FPS
Color space : YUV
Chroma subsampling : 4:2:0
Bit depth : 8 bits
Scan type : Progressive
Compression mode : Lossy
Bits/(Pixel*Frame) : 0.289
Stream size : 581 MiB (89%)
Writing library : DivX 5.1.1 (Maupiti) (UTC 2003-11-19)
Audio
ID : 1
Format : MPEG Audio
Format version : Version 1
Format profile : Layer 3
Codec ID : 55
Codec ID/Hint : MP3
Duration : 59 min 39 s
Bit rate mode : Constant
Bit rate : 160 kb/s
Channel(s) : 2 channels
Sampling rate : 44.1 kHz
Compression mode : Lossy
Stream size : 68.3 MiB (10%)
Alignment : Split accross interleaves
Interleave, duration : 709 ms (17.00 video frames)
Список эпизодов
1. Poemy is in a Bad Mood
2. With a Dream Greater than Earth
Скриншоты
Зарегистрирован:
  • 08-Янв-07 19:13
  • Скачан: 838 раз

13 KB

Тип: обычная
Статус: # сомнительно
Размер: 651.8 MB  ·  magnetA5067CB51990277D1559E39EDD3598BF747CCAD2
  • Свернуть поддиректории
  • Развернуть
  • Переключить
  • Увел./умен. окно
загружается...
Кончается место, сажусь на раздачу:)
64Kb

Alex Luden

Стаж: 12 лет 1 месяц

Сообщений: 18

flag

Alex Luden · 08-Янв-07 19:30 (спустя 16 мин., ред. 20-Апр-16 14:31)

Народ, сорри, скрины чуть попозжа с другой машины:(
Кончается место, сажусь на раздачу:)
64Kb

Alex Luden

Стаж: 12 лет 1 месяц

Сообщений: 18

flag

Alex Luden · 16-Янв-07 09:42 (спустя 7 дней, ред. 20-Апр-16 14:31)

Ганс Подшипкикофф
Могу еще один поток на работе пустить, на всякий случай
Кончается место, сажусь на раздачу:)
64Kb

Ганс Подшипкикофф

Стаж: 13 лет 5 месяцев

Сообщений: 16

flag

Ганс Подшипкикофф · 31-Янв-07 19:14 (спустя 15 дней, ред. 20-Апр-16 14:31)

Чёрт, почему у меня всё на 93 % закончилось?? СИДЕРЫ ВЕРНИТЕСЬ!!!!

Alex Luden

Стаж: 12 лет 1 месяц

Сообщений: 18

flag

Alex Luden · 31-Янв-07 22:13 (спустя 2 часа 59 мин., ред. 20-Апр-16 14:31)

Все будет утром, проблемы со связью:(
Кончается место, сажусь на раздачу:)
64Kb

Ганс Подшипкикофф

Стаж: 13 лет 5 месяцев

Сообщений: 16

flag

Ганс Подшипкикофф · 01-Фев-07 18:50 (спустя 20 часов, ред. 20-Апр-16 14:31)

Цитата:
Все будет утром, проблемы со связью:(
Спасибо!! Наконец-то можно насладиться!!

ps2908

Стаж: 12 лет 4 месяца

Сообщений: 14

ps2908 · 11-Апр-07 19:56 (спустя 2 месяца 10 дней, ред. 20-Апр-16 14:31)

живые есть? =)

AnarhistiK

Стаж: 12 лет 10 месяцев

Сообщений: 5

flag

AnarhistiK · 12-Авг-07 16:45 (спустя 4 месяца, ред. 20-Апр-16 14:31)

ну ктонед ваше расдаод ели нет...............

FrancesDrake

Стаж: 11 лет 7 месяцев

Сообщений: 5

flag

FrancesDrake · 23-Окт-07 19:24 (спустя 2 месяца 11 дней, ред. 20-Апр-16 14:31)

Шикарное аниме Одно из моих любимых!!! %)

FrancesDrake

Стаж: 11 лет 7 месяцев

Сообщений: 5

flag

FrancesDrake · 24-Окт-07 02:10 (спустя 6 часов, ред. 20-Апр-16 14:31)

В этом аниме по скринам и не поймешь ничего

Bolg@r

Стаж: 11 лет 7 месяцев

Сообщений: 5

Bolg@r · 15-Фев-08 14:08 (спустя 3 месяца 22 дня, ред. 20-Апр-16 14:31)

больше года прошло а скринов так и нет!!!
СКРИНЫ В СТУДИЮ ПЛИИИИИИИИИИИИИЗ)))

SatanJSP

Стаж: 11 лет 2 месяца

Сообщений: 25

SatanJSP · 15-Фев-08 19:30 (спустя 5 часов, ред. 20-Апр-16 14:31)

да пофиг на скиры.... было бы луче еслиб газку поддали... бо нифига не качается

tony595

Стаж: 10 лет 7 месяцев

Сообщений: 5

flag

tony595 · 07-Июл-08 23:18 (спустя 4 месяца 21 день)

Привет ) а есть еще ченить подоюбное. Подскажите плиз!!!!!!!!!

Гость


Гость · 07-Окт-08 19:35 (спустя 2 месяца 30 дней)

а че оно нифига не качает???
 
 
All rights reserved © 2017-2019
Loading...
Error